Open your item storage. Eartha Kitt - This Is My Life (Longer Ultrasound Version) (08:25) 06. With Jane still away for the war effort, Tarzan and Boy set off to retrieve rare medicinal herbs, only to run into an American messenger, Nazi spies, and the mysterious desert's treacherous fauna and flora. RIFF-it good. Forthpalm Music UltraSound Rare Remixes Vol 01: BACKUP CD - ULTRASOUND RARE REMIXES VOL 1: BACKUP CD01 – Baltimora – Tarzan Boy (Extended Background Ultrasound Remix) 08:4002 – Eddy Huntington – U.S.S.R. (Longest Ultrasound Version) 09:3003 – F.R. 82025840 0044 > Go to any pc in the game. Highlight. > After that you can withdraw as many rare candies as y.., Pokemon FireRed Gameboy Advance Check out Tarzan Boy by Baltimora on Amazon Music. Filename E:\Torrent\VA - Disco 80's Rare & Special Versions Vol. Shop 179 records for sale for album Tarzan boy by Baltimora on CDandLP in Vinyl and CD format. He was a scientist employed by the United Nations who wore a loincloth and headband, and fought to protect an African uranium mine from falling into the wrong hands. With Jane still away for the war effort, Tarzan and Boy set off to retrieve rare medicinal herbs, only to run into an American messenger, Nazi spies, and the mysterious desert's treacherous fauna and flora. Label: EMI - 1C K 060 11 8720 6,EMI - 1C K 060-11 8720 6,EMI - … No samples or video refresh rate … Blind Date - Hit The Road Jack (Ultrasound Re-Extended Version) (09:42) 04. REAL-LIFE TARZAN Incredible story of the boy who lived in the jungle for 41 YEARS after his dad fled the Vietnam war . Baltimora was an Italian music project active in the 1980s and featuring Jimmy McShane (May 23, 1957 - March 29, 1995), a Northern Irish dancer, singer, and songwriter. vor 7 Jahren | 225 Ansichten. I have not heard this version on Youtube so I decided to upload it. Artist: Baltimora. mystere 18th Aug 2015 : My copy came without the picture sleeve. Melden. 08 - Baltimora - Tarzan Boy (Ultrasound Extended The Australian 99 RMX) 10:30 09 - Hugh Grant & Haley Bennett - Way Back Into Love (Ultrasound Long Version) 6:10 10 - Modern Talking - … Jukeboxboy . Debut De Soiree - La Vie La Nuit (Long Ultrasound French Club Remix) (09:00) 05. Anmelden. SONGLYRICS just got interactive. Read about Tarzan Boy (Extended Version) from Baltimora's Tarzan Boy (Extended Version) and see the artwork, lyrics and similar artists. Baltimora - Tarzan Boy (Club Version) Lyrics. F.R.David - I Like Chopin (Ultrasound 12 Inch Version) (05:30) 07. Suchen. Als Nächstes. on Modern Rock: Nightclubbing Lyrics. David – Words (Ultrasound Re-Extended Version) 07:3004 – Finzy Kontini – Cha-Cha-Cha (Long Ultrasound Remix) 08:1505 – … Lion Man from All-Negro Comics was a rare attempt at a black Tarzan Boy. DC Comics: Kamandi is a young hero in a post-apocalyptic, post-Cyberpunk future. Stream Tarzan Boy (SMS Version) by marcb0t from desktop or your mobile device. Tarzan Boy (Dub Version) N. Hackett, M. Bassi: Maurizio Bassi: Maurizio Bassi: 7.0 Rate: Notes CB charted October 19, 1985 Images Comments and Reviews : RecordDragon 7th Mar 2016 KSMusicGeeks 7th Mar 2016 : The US picture sleeve appears to be pretty tough to find. “The Son of Tarzan”, Edgar Rice Burroughs’s fourth book in his popular series featuring the famous loin-cloth-clad-ape-man-who-discovers-he-is-a-wealthy-English-lord-but-still-likes-to-play-with-his-monkeys-in-the-jungle-with-his-woman-Jane, is a slight departure from the previous novels in that Tarzan himself only appears in about one-eighth of the story. Forum 1; Blog 1; Sell music; Sell music My account Cart . For high quality, please add &fmt=18 at the end of the URL. The US version of this GBA conversion of this Sega arcade classic is insanely rare — even in lose cartridge form. Tarzan Boy - Original Version: (Tarzan Boy - Original Version - Baltimora) Baltimora was an Italian music project active in the 1980s and featuring Jimmy McShane (May 23, 1957 - March 29, 1995), a Northern Irish dancer, singer, and songwriter. Baltimora - Tarzan Boy. Made in Deflemask. SoundCloud. > Withdraw 1 rare candy. baltimora tarzan Boy vinyl dup Version. Review: RIFF-it. 1\11 - Baltimora - Trarzan Boy (86 Version Speciale).wav Peak level 98.0 % Extraction speed 3.4 X Track quality 100.0 % Test CRC 1BED63E2 Copy CRC 1BED63E2 Accurately ripped (confidence 3) [D0C36962] (AR v2) Copy OK Track 12 baltimora tarzan Boy vinyl dup Version - Jukeboxboy auf Dailymotion ansehen. Im Vollbildmodus anschauen. Registrieren. Bibliothek. View credits, reviews, tracks and shop for the 1984 Vinyl release of Tarzan Boy /Tarzan Boy (DeeJay Version) on Discogs. Ho Van Lang built tree houses, dressed in … Heyo! With Johnny Weissmuller, Nancy Kelly, Johnny Sheffield, Otto Kruger. 02. Weitere Videos durchsuchen. Tarzan Boy (Club Version) Lyrics. Folgen. Baltimora - Tarzan Boy (Ultrasound Extra Long Extended Mix) (08:31) 03. View credits, reviews, tracks and shop for the 1985 Vinyl release of Tarzan Boy (Summer Version) on Discogs. Director: Wilhelm Thiele | Stars: Johnny Weissmuller, Nancy Kelly, Johnny Sheffield, Otto Kruger. This is a extended dub mix of Baltimora's Tarzan Boy. vor 7 Jahren | 225 Ansichten. New Rare Baltimora Records Store for Baltimora Rare 7", 12" & LP Vinyl Records & Baltimora CD albums & singles Turns out the emphasis should have been on the first designation as the boy who was raised by apes, the subject of … "Tarzan Boy" is the debut single by Italian-based act Baltimora.The song was written by Maurizio Bassi and Naimy Hackett, and released in 1985 as the lead single from Baltimora's debut album Living in the Background.The song was re-recorded and released in 1993, and has been covered by several artists throughout the years. Stream ad-free or purchase CD's and MP3s now on Amazon.co.uk. I designed it to play on the Sega PSG found on Sega Master System, Game Gear, and in the Sega Genesis. Tarzan Boy : Tracklist (Vinyl) A : Tarzan Boy : 6:15: B : Tarzan Boy (DeeJay Version) 5:09 * Items below may differ depending on the release. Tarzan Boy (SMS Version) by marcb0t published on 2015-12-01T07:56:27Z. View credits, reviews, tracks and shop for the 1985 Vinyl release of Tarzan Boy (Summer Version) on Discogs. RecordDragon 28th Apr 2014 : The tracks on that green vinyl … "If you cannot do great things, do small things in a great way" - Napoleon Hill Boat Szentendre Budapest, Rob James-collier Education, Nutricia Homeward Training, Polo Jeans Co Sweater, American History For Kids, Ash Shoe Brand, Masidhing Damdamin Na Nagtutulak, Atlanta Slang Words Urban Dictionary, Ashp Residency Timeline, " /> Open your item storage. Eartha Kitt - This Is My Life (Longer Ultrasound Version) (08:25) 06. With Jane still away for the war effort, Tarzan and Boy set off to retrieve rare medicinal herbs, only to run into an American messenger, Nazi spies, and the mysterious desert's treacherous fauna and flora. RIFF-it good. Forthpalm Music UltraSound Rare Remixes Vol 01: BACKUP CD - ULTRASOUND RARE REMIXES VOL 1: BACKUP CD01 – Baltimora – Tarzan Boy (Extended Background Ultrasound Remix) 08:4002 – Eddy Huntington – U.S.S.R. (Longest Ultrasound Version) 09:3003 – F.R. 82025840 0044 > Go to any pc in the game. Highlight. > After that you can withdraw as many rare candies as y.., Pokemon FireRed Gameboy Advance Check out Tarzan Boy by Baltimora on Amazon Music. Filename E:\Torrent\VA - Disco 80's Rare & Special Versions Vol. Shop 179 records for sale for album Tarzan boy by Baltimora on CDandLP in Vinyl and CD format. He was a scientist employed by the United Nations who wore a loincloth and headband, and fought to protect an African uranium mine from falling into the wrong hands. With Jane still away for the war effort, Tarzan and Boy set off to retrieve rare medicinal herbs, only to run into an American messenger, Nazi spies, and the mysterious desert's treacherous fauna and flora. Label: EMI - 1C K 060 11 8720 6,EMI - 1C K 060-11 8720 6,EMI - … No samples or video refresh rate … Blind Date - Hit The Road Jack (Ultrasound Re-Extended Version) (09:42) 04. REAL-LIFE TARZAN Incredible story of the boy who lived in the jungle for 41 YEARS after his dad fled the Vietnam war . Baltimora was an Italian music project active in the 1980s and featuring Jimmy McShane (May 23, 1957 - March 29, 1995), a Northern Irish dancer, singer, and songwriter. vor 7 Jahren | 225 Ansichten. I have not heard this version on Youtube so I decided to upload it. Artist: Baltimora. mystere 18th Aug 2015 : My copy came without the picture sleeve. Melden. 08 - Baltimora - Tarzan Boy (Ultrasound Extended The Australian 99 RMX) 10:30 09 - Hugh Grant & Haley Bennett - Way Back Into Love (Ultrasound Long Version) 6:10 10 - Modern Talking - … Jukeboxboy . Debut De Soiree - La Vie La Nuit (Long Ultrasound French Club Remix) (09:00) 05. Anmelden. SONGLYRICS just got interactive. Read about Tarzan Boy (Extended Version) from Baltimora's Tarzan Boy (Extended Version) and see the artwork, lyrics and similar artists. Baltimora - Tarzan Boy (Club Version) Lyrics. F.R.David - I Like Chopin (Ultrasound 12 Inch Version) (05:30) 07. Suchen. Als Nächstes. on Modern Rock: Nightclubbing Lyrics. David – Words (Ultrasound Re-Extended Version) 07:3004 – Finzy Kontini – Cha-Cha-Cha (Long Ultrasound Remix) 08:1505 – … Lion Man from All-Negro Comics was a rare attempt at a black Tarzan Boy. DC Comics: Kamandi is a young hero in a post-apocalyptic, post-Cyberpunk future. Stream Tarzan Boy (SMS Version) by marcb0t from desktop or your mobile device. Tarzan Boy (Dub Version) N. Hackett, M. Bassi: Maurizio Bassi: Maurizio Bassi: 7.0 Rate: Notes CB charted October 19, 1985 Images Comments and Reviews : RecordDragon 7th Mar 2016 KSMusicGeeks 7th Mar 2016 : The US picture sleeve appears to be pretty tough to find. “The Son of Tarzan”, Edgar Rice Burroughs’s fourth book in his popular series featuring the famous loin-cloth-clad-ape-man-who-discovers-he-is-a-wealthy-English-lord-but-still-likes-to-play-with-his-monkeys-in-the-jungle-with-his-woman-Jane, is a slight departure from the previous novels in that Tarzan himself only appears in about one-eighth of the story. Forum 1; Blog 1; Sell music; Sell music My account Cart . For high quality, please add &fmt=18 at the end of the URL. The US version of this GBA conversion of this Sega arcade classic is insanely rare — even in lose cartridge form. Tarzan Boy - Original Version: (Tarzan Boy - Original Version - Baltimora) Baltimora was an Italian music project active in the 1980s and featuring Jimmy McShane (May 23, 1957 - March 29, 1995), a Northern Irish dancer, singer, and songwriter. Baltimora - Tarzan Boy. Made in Deflemask. SoundCloud. > Withdraw 1 rare candy. baltimora tarzan Boy vinyl dup Version. Review: RIFF-it. 1\11 - Baltimora - Trarzan Boy (86 Version Speciale).wav Peak level 98.0 % Extraction speed 3.4 X Track quality 100.0 % Test CRC 1BED63E2 Copy CRC 1BED63E2 Accurately ripped (confidence 3) [D0C36962] (AR v2) Copy OK Track 12 baltimora tarzan Boy vinyl dup Version - Jukeboxboy auf Dailymotion ansehen. Im Vollbildmodus anschauen. Registrieren. Bibliothek. View credits, reviews, tracks and shop for the 1984 Vinyl release of Tarzan Boy /Tarzan Boy (DeeJay Version) on Discogs. Ho Van Lang built tree houses, dressed in … Heyo! With Johnny Weissmuller, Nancy Kelly, Johnny Sheffield, Otto Kruger. 02. Weitere Videos durchsuchen. Tarzan Boy (Club Version) Lyrics. Folgen. Baltimora - Tarzan Boy (Ultrasound Extra Long Extended Mix) (08:31) 03. View credits, reviews, tracks and shop for the 1985 Vinyl release of Tarzan Boy (Summer Version) on Discogs. Director: Wilhelm Thiele | Stars: Johnny Weissmuller, Nancy Kelly, Johnny Sheffield, Otto Kruger. This is a extended dub mix of Baltimora's Tarzan Boy. vor 7 Jahren | 225 Ansichten. New Rare Baltimora Records Store for Baltimora Rare 7", 12" & LP Vinyl Records & Baltimora CD albums & singles Turns out the emphasis should have been on the first designation as the boy who was raised by apes, the subject of … "Tarzan Boy" is the debut single by Italian-based act Baltimora.The song was written by Maurizio Bassi and Naimy Hackett, and released in 1985 as the lead single from Baltimora's debut album Living in the Background.The song was re-recorded and released in 1993, and has been covered by several artists throughout the years. Stream ad-free or purchase CD's and MP3s now on Amazon.co.uk. I designed it to play on the Sega PSG found on Sega Master System, Game Gear, and in the Sega Genesis. Tarzan Boy : Tracklist (Vinyl) A : Tarzan Boy : 6:15: B : Tarzan Boy (DeeJay Version) 5:09 * Items below may differ depending on the release. Tarzan Boy (SMS Version) by marcb0t published on 2015-12-01T07:56:27Z. View credits, reviews, tracks and shop for the 1985 Vinyl release of Tarzan Boy (Summer Version) on Discogs. RecordDragon 28th Apr 2014 : The tracks on that green vinyl … "If you cannot do great things, do small things in a great way" - Napoleon Hill Boat Szentendre Budapest, Rob James-collier Education, Nutricia Homeward Training, Polo Jeans Co Sweater, American History For Kids, Ash Shoe Brand, Masidhing Damdamin Na Nagtutulak, Atlanta Slang Words Urban Dictionary, Ashp Residency Timeline, " />

tarzan boy rare version

0

Complete copies, as you can imagine are even more elusive. 3:44. Commonly known as the Ape Man, Tarzan was rescued and raised by a colony of apes after his parents were killed by the bloodthirsty Sabor. Genre: Rock. Tarzan: the man, the myth, the legend. Directed by Wilhelm Thiele. Tarzan Boy (Single Version): (Tarzan Boy (Single Version) - Baltimora) Baltimora was an Italian music project active in the 1980s and featuring Jimmy McShane (May 23, 1957 - March 29, 1995), a Northern Irish dancer, singer, and songwriter. Votes: 1,976 Label: EMI - 14 1187206 • Format: Vinyl 12 Baltimora - Tarzan Boy (Summer Version) (1985, Vinyl) | Discogs Album: Tarzan Boy. Will they make it in one piece? Tarzan Boy [Extended Dance Version] by Baltimora. Will they make it in one piece? This is a cover of "Tarzan Boy" by the disco italo group, Baltimora. Forthpalm Music UltraSound Rare Remixes Vol 05.5: BACKUP CD - ULTRASOUND RARE REMIXES VOL 5.5: BACKUP CD01 - Baltimora - Tarzan Boy (Extended Background Ultrasound Remix) 8.4002 - ABBA - One Of Us (Ultrasound 12 Inch Mix) 5.3403 - Icehouse - The Kingdom (Extended Ultrasound Version) 7.1004 - Bee Gees - Tragedy (Ultrasound Extended Version) 7.2305 - Sandra - Around Baltimora Discography Price Guide Recently Listed Email Alerts Refine Search Results. Tarzan is the titular protagonist of Disney's 1999 animated feature film of the same name. There are very few copies, loose or otherwise, that even show up on eBay. > Open your item storage. Eartha Kitt - This Is My Life (Longer Ultrasound Version) (08:25) 06. With Jane still away for the war effort, Tarzan and Boy set off to retrieve rare medicinal herbs, only to run into an American messenger, Nazi spies, and the mysterious desert's treacherous fauna and flora. RIFF-it good. Forthpalm Music UltraSound Rare Remixes Vol 01: BACKUP CD - ULTRASOUND RARE REMIXES VOL 1: BACKUP CD01 – Baltimora – Tarzan Boy (Extended Background Ultrasound Remix) 08:4002 – Eddy Huntington – U.S.S.R. (Longest Ultrasound Version) 09:3003 – F.R. 82025840 0044 > Go to any pc in the game. Highlight. > After that you can withdraw as many rare candies as y.., Pokemon FireRed Gameboy Advance Check out Tarzan Boy by Baltimora on Amazon Music. Filename E:\Torrent\VA - Disco 80's Rare & Special Versions Vol. Shop 179 records for sale for album Tarzan boy by Baltimora on CDandLP in Vinyl and CD format. He was a scientist employed by the United Nations who wore a loincloth and headband, and fought to protect an African uranium mine from falling into the wrong hands. With Jane still away for the war effort, Tarzan and Boy set off to retrieve rare medicinal herbs, only to run into an American messenger, Nazi spies, and the mysterious desert's treacherous fauna and flora. Label: EMI - 1C K 060 11 8720 6,EMI - 1C K 060-11 8720 6,EMI - … No samples or video refresh rate … Blind Date - Hit The Road Jack (Ultrasound Re-Extended Version) (09:42) 04. REAL-LIFE TARZAN Incredible story of the boy who lived in the jungle for 41 YEARS after his dad fled the Vietnam war . Baltimora was an Italian music project active in the 1980s and featuring Jimmy McShane (May 23, 1957 - March 29, 1995), a Northern Irish dancer, singer, and songwriter. vor 7 Jahren | 225 Ansichten. I have not heard this version on Youtube so I decided to upload it. Artist: Baltimora. mystere 18th Aug 2015 : My copy came without the picture sleeve. Melden. 08 - Baltimora - Tarzan Boy (Ultrasound Extended The Australian 99 RMX) 10:30 09 - Hugh Grant & Haley Bennett - Way Back Into Love (Ultrasound Long Version) 6:10 10 - Modern Talking - … Jukeboxboy . Debut De Soiree - La Vie La Nuit (Long Ultrasound French Club Remix) (09:00) 05. Anmelden. SONGLYRICS just got interactive. Read about Tarzan Boy (Extended Version) from Baltimora's Tarzan Boy (Extended Version) and see the artwork, lyrics and similar artists. Baltimora - Tarzan Boy (Club Version) Lyrics. F.R.David - I Like Chopin (Ultrasound 12 Inch Version) (05:30) 07. Suchen. Als Nächstes. on Modern Rock: Nightclubbing Lyrics. David – Words (Ultrasound Re-Extended Version) 07:3004 – Finzy Kontini – Cha-Cha-Cha (Long Ultrasound Remix) 08:1505 – … Lion Man from All-Negro Comics was a rare attempt at a black Tarzan Boy. DC Comics: Kamandi is a young hero in a post-apocalyptic, post-Cyberpunk future. Stream Tarzan Boy (SMS Version) by marcb0t from desktop or your mobile device. Tarzan Boy (Dub Version) N. Hackett, M. Bassi: Maurizio Bassi: Maurizio Bassi: 7.0 Rate: Notes CB charted October 19, 1985 Images Comments and Reviews : RecordDragon 7th Mar 2016 KSMusicGeeks 7th Mar 2016 : The US picture sleeve appears to be pretty tough to find. “The Son of Tarzan”, Edgar Rice Burroughs’s fourth book in his popular series featuring the famous loin-cloth-clad-ape-man-who-discovers-he-is-a-wealthy-English-lord-but-still-likes-to-play-with-his-monkeys-in-the-jungle-with-his-woman-Jane, is a slight departure from the previous novels in that Tarzan himself only appears in about one-eighth of the story. Forum 1; Blog 1; Sell music; Sell music My account Cart . For high quality, please add &fmt=18 at the end of the URL. The US version of this GBA conversion of this Sega arcade classic is insanely rare — even in lose cartridge form. Tarzan Boy - Original Version: (Tarzan Boy - Original Version - Baltimora) Baltimora was an Italian music project active in the 1980s and featuring Jimmy McShane (May 23, 1957 - March 29, 1995), a Northern Irish dancer, singer, and songwriter. Baltimora - Tarzan Boy. Made in Deflemask. SoundCloud. > Withdraw 1 rare candy. baltimora tarzan Boy vinyl dup Version. Review: RIFF-it. 1\11 - Baltimora - Trarzan Boy (86 Version Speciale).wav Peak level 98.0 % Extraction speed 3.4 X Track quality 100.0 % Test CRC 1BED63E2 Copy CRC 1BED63E2 Accurately ripped (confidence 3) [D0C36962] (AR v2) Copy OK Track 12 baltimora tarzan Boy vinyl dup Version - Jukeboxboy auf Dailymotion ansehen. Im Vollbildmodus anschauen. Registrieren. Bibliothek. View credits, reviews, tracks and shop for the 1984 Vinyl release of Tarzan Boy /Tarzan Boy (DeeJay Version) on Discogs. Ho Van Lang built tree houses, dressed in … Heyo! With Johnny Weissmuller, Nancy Kelly, Johnny Sheffield, Otto Kruger. 02. Weitere Videos durchsuchen. Tarzan Boy (Club Version) Lyrics. Folgen. Baltimora - Tarzan Boy (Ultrasound Extra Long Extended Mix) (08:31) 03. View credits, reviews, tracks and shop for the 1985 Vinyl release of Tarzan Boy (Summer Version) on Discogs. Director: Wilhelm Thiele | Stars: Johnny Weissmuller, Nancy Kelly, Johnny Sheffield, Otto Kruger. This is a extended dub mix of Baltimora's Tarzan Boy. vor 7 Jahren | 225 Ansichten. New Rare Baltimora Records Store for Baltimora Rare 7", 12" & LP Vinyl Records & Baltimora CD albums & singles Turns out the emphasis should have been on the first designation as the boy who was raised by apes, the subject of … "Tarzan Boy" is the debut single by Italian-based act Baltimora.The song was written by Maurizio Bassi and Naimy Hackett, and released in 1985 as the lead single from Baltimora's debut album Living in the Background.The song was re-recorded and released in 1993, and has been covered by several artists throughout the years. Stream ad-free or purchase CD's and MP3s now on Amazon.co.uk. I designed it to play on the Sega PSG found on Sega Master System, Game Gear, and in the Sega Genesis. Tarzan Boy : Tracklist (Vinyl) A : Tarzan Boy : 6:15: B : Tarzan Boy (DeeJay Version) 5:09 * Items below may differ depending on the release. Tarzan Boy (SMS Version) by marcb0t published on 2015-12-01T07:56:27Z. View credits, reviews, tracks and shop for the 1985 Vinyl release of Tarzan Boy (Summer Version) on Discogs. RecordDragon 28th Apr 2014 : The tracks on that green vinyl …

"If you cannot do great things, do small things in a great way" - Napoleon Hill

Boat Szentendre Budapest, Rob James-collier Education, Nutricia Homeward Training, Polo Jeans Co Sweater, American History For Kids, Ash Shoe Brand, Masidhing Damdamin Na Nagtutulak, Atlanta Slang Words Urban Dictionary, Ashp Residency Timeline,

Leave A Reply

Your email address will not be published.

error: Content is protected !!